&title=いーあるふぁんくらぶ [DX]
&wholebpm=145
&artist=みきとP
&des=はっぴー
&shortid=10256
&genre=niconicoボーカロイド
&cabinet=DX
&version=maimai DX
&chartconverter=Neskol
&lv_2=2
&des_2=-
&lv_3=6
&des_3=-
&lv_4=8
&des_4=はっぴー
&lv_5=11
&des_5=はっぴー
&des_6=
&inote_2=
(145){1},
{1},
{2},1,
{2},8,
{2},1,
{2},8,
{2},1/2,
{2},7/8,
{2},1/2,
{2},8b,
{2}1,1,
{1}1,
{2}2,2,
{1}2,
{2}3,3,
{1}3,
{1}4h[1:1],
{1},
{2}5,5,
{1}5,
{2}6,6,
{1}6,
{2}7,7,
{1}7,
{1}8h[1:1],
{1},
{1}7-3[4:3],
{1},
{1}2-6[4:3],
{1},
{2}6,5,
{2}4,4,
{2}E5,B3/B6,
{1}C1f,
{4}8,8,8,,
{4}1,1,1,,
{2}2,3,
{1}4/5,
{4}4,4,4,,
{4}5,5,5,,
{2}6,7,
{1}1/8,
{1}7-3[4:3],
{1},
{1}2-6[4:3],
{1},
{1}5/6,
{1}4/5,
{1}3/4,
{1}4/5,
{2}E4,E5,
{2}E6,E7,
{2}E8,E1,
{1}E2,
{2}3/4,3/4,
{2}5/6,5/6,
{2}E5,B3/B6,
{1}C1f,
{4}8,8,8,,
{4}1,1,1,,
{4}2,2,2,,
{4}3,3,3/4,,
{4}5,5,5,,
{4}6,6,6,,
{4}7,7,7,,
{1}8b,
{2}7x/8x,1x/8x,
{1}1x/2x,
{1}1-5[4:3],
{1},
{8},4x/5x,,,,,,,
{1},
{1},
{1},
E
&inote_3=
(145){1},
{1}1x/8x,
{4}3,3,3/4,,
{4}6,6,5/6,,
{4}3,4,5,6,
{4}4/5,4/5,3x/6x,,
{4}7,7,7/8,,
{4}2,2,1/2,,
{4}7,8,1,2,
{4}1/8,1/8,2x/7x,,
{2}3h[2:1],4,
{4}3,4,4/5,,
{2}6h[2:1],5,
{4}6,5,4/5,,
{2}3h[2:1],4,
{4}3,4,4/5,,
{4}6,5/6,3,3/4,
{4}4/5,4/5,3b/6b,,
{2}B3,E5,
{2}B6,4/5,
{2}B6,E5,
{2}B3,4/5,
{2}E4/E6,B2/B7,
{1}1-4[8:3]/8-5[8:3],
{2}4/5,E4/E6,
{1}C1f,
{4}3,3,4,6,
{4}6,5,3x/6x,3x/6x,
{4}2,2,1,7,
{4}7,8,2x/7x,2x/7x,
{1}1-4[8:3]/8-5[8:3],
{1}4-1[8:3]/5-8[8:3],
{4}2,1,8,7,
{4}1x/8x,1x/8x,2b/7b,,
{4}2/8,2/8,1/7,1/7,
{4}2/8,1/7,2x/8x,,
{1}7-4[8:3]/8-3[8:3],
{4}3,4,2x/5x,,
{4}4/6,4/6,3/5,3/5,
{4}4/6,3/5,4x/6x,,
{1}3-8[8:3]/4-7[8:3],
{4}7,8,1b/6b,,
{2}3h[2:1],4h[2:1],
{2}5h[2:1],6,
{2}6h[2:1],5h[2:1],
{2}4h[2:1],3,
{2}B3,B4,
{2}B5,B6,
{2}B7,B8,
{1}1-5[8:3],
{4}6h[4:3],,5,5,
{4}3h[4:3],,4,4,
{4}2h[4:3],,1,1,
{4}7h[4:3],,8,8,
{1}7-4[8:3]/8-3[8:3],
{1}1-6[8:3]/2-5[8:3],
{2}4/5,B3/B6,
{1}C1f,
{4}1/7,1/7,2/8,2/8,
{4}1/7,2/8,1x/7x,,
{1}7-4[8:3]/8-3[8:3],
{4}3,4,2x/5x,,
{4}4/6,4/6,3/5,3/5,
{4}4/6,4/6,3x/5x,,
{1}3-8[8:3]/4-7[8:3],
{4}7,8,1b/6b,,
{2}4/5,4/5,
{2}B3/B6,B2/B7,
{1}C1hf[8:17],
{1},
{1},
{1},
{1},
E
&inote_4=
(145){1},
{1}C1f,
{4}6h[4:1],5,4/7,,
{4}3h[4:1],4,2/5,,
{4}6h[4:1],5,4/7,,
{4}5h[4:1],4,2/7,,
{4}3h[4:1],4,2/5,,
{4}6h[4:1],5,4/7,,
{4}3h[4:1],4,2/5,,
{4}4h[4:1],5,2b/7b,,
{4}3h[4:1],4,6h[4:1],5,
{4}3h[4:1],4,1,1,
{4}6h[4:1],5,3h[4:1],4,
{4}6h[4:1],5,8,2/7,
{4}3h[4:1],4,6h[4:1],5,
{4}4/5,2/7,1/8,3/6,
{8}2/7,2/7,2/7,,1/8h[4:1],,1q5[4:1],,
{4},,4/5,3b/6b,
{4}7h[4:1],5,2h[4:1],4,
{4}7h[4:1],5,8,1,
{4}2h[4:1],4,7h[4:1],5,
{8}2h[4:1],,4,,1/8,1/8,2/7,,
{4}3h[4:1],5,6h[4:1],4,
{4}3h[4:1],5,2/7,2/7,
{8}1/8,1/8,1/8,,2/4,,5/7pp4[2:1],,
{1},
{4}B5/B6,B4,B3,B5/B6,
{4}B4,B3,1x,1x,
{4}B3/B4,B5,B6,B3/B4,
{4}B5,B6,8x,8x,
{2}5h[2:1]/6,4h[2:1],
{2}3h[2:1],6,
{4}5/6,7/8,1/2,3/4,
{4}1/8,4/5,2b/7b,,
{8}7/8,,2/5,,1,1,2/8,,
{8}1/2,,4/7,,8,8,1/7,,
{4}2h[4:1],4h[4:1],5h[4:1],7,
{4}2/4,4/5,2x/7x,,
{8}1/2,,4/7,,8,8,1/7,,
{8}7/8,,2/5,,1,1,2/8,,
{4}1/7,,4/5,3/6,
{1}2b/7b,
{4}6h[4:3],,B5,B4,
{4}3h[4:3],,B4,B5,
{4}6h[4:3],,B5,B4,
{4}2/7,,8,8-5[4:1],
{4},,1/8,1-4[4:1]/8-5[4:1],
{4},,B4,B5,
{4}B6,B7,B8,E1,
{1}1>6[2:1],
{4}3h[4:3],,B4,B5,
{4}6h[4:3],,B5,B4,
{4}3h[4:3],,B4,B5,
{4}2/7,,3,3,
{4}2h[4:1]/4h[4:1],,6,6,
{4}5h[4:1]/7h[4:1],,8,1,
{1}2h[4:3]/7h[4:3],
{1}C1f,
{8}5/6,,3/8,,1,1,2/8,,
{8}3/4,,1/6,,8,8,1/7,,
{4}6h[4:1],8h[4:1],1h[4:1],3,
{4}4/5,1/8,2x/7x,,
{8}3/4,,1/6,,8,8,1/7,,
{8}5/6,,3/8,,1,1,2/8,,
{4}1x/7x,,4/5,3/6,
{4}2/7,,4/6,3/5,
{4}2/6,,2/8,1/7,
{4}2xh[2:1]/8xh[2:1],,,3/6,
{1}C1hf[8:17],
{1},
{1},
{1},
{1},
E
&inote_5=
(145){1},
{1}C1f,
{4}5/7,4/5,E1/B1/B2/E3,,
{4}2/4,4/5,E1/E7/B7/B8,,
{4}5/7,4/5,B1/E1/B2/E3,,
{4}2/4,4/5,E1/E7/B7/B8,,
{4}1/6,5/7,E2/B2/B3/E4,,
{4}3/8,2/4,B6/E6/B7/E8,,
{4}1/6,5/7,E2/B2/B3/E4,,
{4}3/8,2/4,B6/E6/B7/E8,,
{8}5/7h[4:1],5,5,,2h[4:1]/4,4,4,,
{4}4/5,3/6,B1/E2/B8/E8,B4/E4/B5/E6,
{8}1/2h[4:1],1,1,,7h[4:1]/8,8,8,,
{4}4/5,7<4[8:1]/8>3[8:1],,1/6,
{8}5/7h[4:1],5,5,,2h[4:1]/4,4,4,,
{4}4/5,4/5,B1/E2/E8/B8,E4/B4/B5/E6,
{8}1-5[8:1]/8-4[8:1],,,,2/7,2/7,2/7,,
{16}1,8,,8,1,,1,,1/8,,2/7,,3b/6b,,,,
{8}2h[4:1]/4,4,4,,5/7h[4:1],5,5,,
{4}5/6,1/2,E1/E7/B7/B8,B3/E3/B4/E5,
{8}5/7h[4:1],6,6,,2h[4:1]/4,3,3,,
{8}4>1[8:1]/5<8[8:1],,,,2/7,2/7,2/7,,
{8}2h[4:1]/4,3,4,,5/7h[4:1],6,5,,
{4}4/5,1-5[8:1]/8-4[8:1],,2/7,
{8}4/6,4/6,3/5,3/5,4/7,,2<4[2:1]/5,,
{4}4,,,3b/6b,
{4}5/6h[2:1],4,5,1/2h[2:1],
{4}8,1,B2/B3/E4,B6/E6/B7,
{4}3h[2:1]/4,5,4,7h[2:1]/8,
{4}1,8,E6/B6/B7,B2/B3/E4,
{2}5>1[4:1]/6,4<8[4:1],
{2}5>1[4:1],4<8[4:1],
{8}1,,1/8,1/8,2/7,,2/7,,
{4}4x/5x,1x/8x,B3/B4/E4/B5/E6/B6,,
{4}4/8,2<7[8:1]/6>3[8:1],,1/5,
{8}7/8,6,4/5,3,1/2,3,4/5,,
{4}3/7-4[8:1],2-6[8:1],8-4[8:1],1>7[4:1],
{4}8,8,2x/7x,,
{4}1/5,3<6[8:1]/7>2[8:1],,4/8,
{8}4/5,3,1/2,3,4/5,6,7/8,,
{2}2/6,4>1[8:1]/5<8[8:1],
{4}2/7,1/8,3/6,4/5,
{4}6h[4:1],8h[4:1],1h[4:1],3h[4:1],
{4}6,4/5,3h[4:1],1h[4:1],
{4}8h[4:1],6h[4:1],3,4/5,
{4}2/7,,5/6h[4:1],5,
{4}B1/E1/B2/E3,,3h[4:1]/4,4,
{4}E1/E7/B7/B8,,7h[4:1],5h[4:1],
{4}4h[4:1],2h[4:1],1h[4:1],8<1[2:1],
{4}1,,,4/5,
{8}7,7,5,5,6,6,4,4,
{4}3/6,4/5,1/8,3/6,
{8}2,2,4,4,3,3,5,5,
{4}3/6,4/5,5/6,4>1[4:1]/7<4[4:1],
{4},,3/4,2>5[4:1]/5<8[4:1],
{4},,4/5,1/8,
{1}1>4[2:1]/8<5[2:1],
{16}5,4,,4,5,,5,,1x/8x,,2x/7x,,3x/6x,,,,
{4}1/5,3<6[8:1]/7>2[8:1],,4/8,
{8}1/2,3,4/5,6,7/8,6,4/5,,
{4}2-5[8:1]/6,7-3[8:1],1-5[8:1],8<2[4:1],
{4}1,1,E1/B1/B4/E5/B5/B8,,
{4}4/8,2<7[8:1]/6>3[8:1],,1/5,
{8}7/8,6,4/5,3,1/2,3,4/5,,
{4}3/7,1/8,4>1[8:1]/5<8[8:1],,
{4}2/7,,2/7,4/5,
{2}B3/E4/B4/B7/B8/E8,C1/B1/B2/E2/B5/E6/B6,
{16}6,5,6,5,6,,3,4,3,4,3,,4/5,,,,
{1}C1hf[8:17]/B2/B3/E3/B6/E7/B7,
{1},
{1},
{1},
{1},
E
